Torrent Details For "Mazinger Z Infinity [2017] BRip 720p Dual YG"

Mazinger Z Infinity [2017] BRip 720p Dual YG

To download this torrent, you need a BitTorrent client: Vuze or BTGuard
Download this torrent
Download using Magnet Link

Health:
Seeds: 9
Leechers: 4
Completed: 67 
Last Checked: 30-11-2018 01:48:15

Uploader Reputation points : 492
External: Torrent



BTGuard - BitTorrent Anonymously


Write a Review for the Uploader:   0   Say Thanks with one good review:


Details
Name:Mazinger Z Infinity [2017] BRip 720p Dual YG
Description:
     *******************************************************************************                  Mazinger Z Infinity [2017] BRip 720p Dual YG. *******************************************************************************  -------------------------------------------------------------------------------                               General Information ------------------------------------------------------------------------------- Type.................: Movie Platform.............: win-10 Video Format.........: Matroska Video Bitrate........: 1359 Resolution...........: 1280X720 Color................: 8 bit FPS..................: 24.000 FPS Source...............: BRip Original Format......: BR Genre................: Animation IMDb Rating..........:  6,0/10  Movie Information....: www.imdb.com/title/tt6470762  -------------------------------------------------------------------------------                                Post Information ------------------------------------------------------------------------------- Posted by............: Yerisan710/MaxMad Posted on............: 26/11/2018  -------------------------------------------------------------------------------                                  Release Notes ------------------------------------------------------------------------------- Audio #1 ID                                       : 2 Format                                   : AAC LC Format/Info                              : Advanced Audio Codec Low Complexity Codec ID                                 : A_AAC-2 Duration                                 : 1 h 34 min Bit rate                                 : 128 kb/s Channel(s)                               : 2 channels Channel layout                           : L R Sampling rate                            : 48.0 kHz Frame rate                               : 46.875 FPS (1024 SPF) Compression mode                         : Lossy Delay relative to video                  : 9 s 0 ms Stream size                              : 86.7 MiB (9%) Title                                    : Mazinger Z Infinity [2017] BRip 720p  Dual YG Language                                 : Spanish Default                                  : Yes Forced                                   : No  Audio #2 ID                                       : 3 Format                                   : AAC LC Format/Info                              : Advanced Audio Codec Low Complexity Codec ID                                 : A_AAC-2 Duration                                 : 1 h 34 min Bit rate                                 : 128 kb/s Channel(s)                               : 2 channels Channel layout                           : L R Sampling rate                            : 48.0 kHz Frame rate                               : 46.875 FPS (1024 SPF) Compression mode                         : Lossy Stream size                              : 86.8 MiB (9%) Title                                    : Mazinger Z Infinity [2017] BRip 720p  Dual YG Language                                 : Japanese Default                                  : No Forced                                   : No  you can follow me... Spanish YG  Go.! Go.! Go.! Go.!   -1337x   -bt-scene   -worldwidetorrents   -loading-your-site.com  *PiRATES_NEVER_DiE!* *We Just go ON and On and On...FOREVER!*    
YouTube Video:
Category:Anime
Language:Spanish  Spanish
Total Size:923.00 MB
Info Hash:B362D9F9216473E33CAA66DE4B9EE61D3F9E5557
Added By:Yerisan710 Verified Uploader
Date Added:26-11-2018 23:23:18
Torrent Status:Torrent Verified


Ratings:Not Yet Rated (Log in to rate it)


Tracker:
udp://tracker.leechers-paradise.org:6969/announce

This Torrent also has backup trackers
URLSeedersLeechersCompleted
udp://tracker.leechers-paradise.org:6969/announce000
udp://tracker.coppersurfer.tk:6969/announce5140
udp://tracker.opentrackr.org:1337/announce4327
udp://tracker.zer0day.to:1337/announce000
udp://eddie4.nl:6969/announce000
udp://glotorrents.pw:6969/announce000
udp://tracker.pubt.net:2710/announce000
udp://tracker.openbittorrent.com:80/announce000
udp://open.demonii.com:1337/announce000


File List: 



Warning! Do not Download Torrents Without a VPN!
Your IP Address is .   Location is
Your Internet Provider and Government can track your torrent Activity! Hide your IP ADDRESS with a VPN!
We strongly recommend using SpyOFF VPN to anonymize your Torrenting.It's FREE!
START YOUR FREE TRIAL NOW!


Comments
No comments still posted